Американские боги / American Gods [03x01-09 из 10] (2021) WEB-DL 720p от ExKinoRay | D | Нота

17-03-2021, 20:08
Американские боги / American Gods [03x01-09 из 10] (2021) WEB-DL 720p от ExKinoRay | D | Нота
Название: Американские боги
Оригинальное название: American Gods
Год выхода: 2021
Жанр: Фэнтези, драма, детектив
Режиссер: Джон Эмиел, Джулиан Холмс, Томас Картер, Эва Сёрхёуг, Ник Копус, Марк Тинкер, Рэйчел Голдберг, Тим Соутэм, Метин Хусейн, Рассел Ли Файн
В ролях: Рики Уиттл, Эмили Браунинг, Йетиде Бадаки, Брюс Лэнгли, Омид Абтахи, Демор Барнс, Иэн Макшейн, Эшли Рейс, Криспин Гловер, Петер Стормаре, Девери Джейкобс, Мэрилин Мэнсон, Блайт Дэннер, Эрисен Ф. Гардиола, Доминик Джексон, Эрик Джонсон, Лила Лорен, Дэнни Трехо, Джулия Суини, Вейл, Иван Реон, Дэнис О’Хэр

О фильме:
Экранизация фантастического бестселлера Нила Геймана. Бывший заключённый Тень Мун устраивается на работу к таинственному незнакомцу по имени Мистер Среда, который оказывается воплощением верховного скандинавского бога Одина. Кроме него в Америке скрывается ещё целое множество героев древних мифов и преданий. Старые Боги потеряли своё могущество, уступив место Новым Американским Богам, порождённым массовой культурой. Между двумя пантеонами – древнего и современного мира – назревает война за веру людей. Сезон следует за Тенью Муном, когда он переезжает в Лейксайд, Висконсин, под новым именем, чтобы спрятаться от Новых Богов.

Страна: США
Студия: Canada Film Capital, Fremantle, Starz, Amazon Studios
Продолжительность: 9 x ~ 00:55:00
Перевод: Дублированный

Файл
Кодек: MPEG-4 AVC
Качество: WEB-DL 720p
Видео: MPEG-4 AVC, ~ 4650 Кбит/с, 1280x720
Звук: Русский, английский (AC3, 6 ch, 640 Кбит/с)
Субтитры: Русские (Forced, Full), английские (SDH)
Реклама, любого вида, отсутствует.

 
Видеоряд: Амазон
Перевод: Дублированный студия "Нота"
Субтитры: Русские (Forced, Full), английские (SDH)
Реклама: Отсутствует
 

General
Complete name : American.Gods.S03.E01.2021.WEB-DL.(720p).ExKinoRay.mkv
Format : Matroska
Format version : Version 2
File size : 2.35 GiB
Duration : 55 min 47 s
Overall bit rate : 6 021 kb/s
Encoded date : UTC 2021-01-12 00:05:14
Writing application : mkvmerge v5.8.0 ('No Sleep / Pillow') built on Sep 2 2012 15:37:04
Writing library : libebml v1.2.3 + libmatroska v1.3.0

Video
ID : 1
Format : AVC
Format/Info : Advanced Video Codec
Format profile : High@L3.1
Format settings : CABAC / 4 Ref Frames
Format settings, CABAC : Yes
Format settings, Reference : 4 frames
Codec ID : V_MPEG4/ISO/AVC
Duration : 55 min 47 s
Bit rate mode : Constant
Bit rate : 4 621 kb/s
Nominal bit rate : 6 000 kb/s
Width : 1 280 pixels
Height : 720 pixels
Display aspect ratio : 16:9
Frame rate mode : Constant
Frame rate : 23.976 (24000/1001) FPS
Color space : YUV
Chroma subsampling : 4:2:0
Bit depth : 8 bits
Scan type : Progressive
Bits/(Pixel*Frame) : 0.209
Stream size : 1.80 GiB (77%)
Language : English
Default : Yes
Forced : No
Color range : Limited
Color primaries : BT.709
Transfer characteristics : BT.709
Matrix coefficients : BT.709

Audio #1
ID : 2
Format : AC-3
Format/Info : Audio Coding 3
Commercial name : Dolby Digital
Codec ID : A_AC3
Duration : 55 min 47 s
Bit rate mode : Constant
Bit rate : 640 kb/s
Channel(s) : 6 channels
Channel layout : L R C LFE Ls Rs
Sampling rate : 48.0 kHz
Frame rate : 31.250 FPS (1536 SPF)
Compression mode : Lossy
Stream size : 255 MiB (11%)
Language : Russian
Service kind : Complete Main
Default : Yes
Forced : No

Audio #2
ID : 3
Format : AC-3
Format/Info : Audio Coding 3
Commercial name : Dolby Digital
Codec ID : A_AC3
Duration : 55 min 47 s
Bit rate mode : Constant
Bit rate : 640 kb/s
Channel(s) : 6 channels
Channel layout : L R C LFE Ls Rs
Sampling rate : 48.0 kHz
Frame rate : 31.250 FPS (1536 SPF)
Compression mode : Lossy
Stream size : 255 MiB (11%)
Language : English
Service kind : Complete Main
Default : No
Forced : No

Text #1
ID : 4
Format : UTF-8
Codec ID : S_TEXT/UTF8
Codec ID/Info : UTF-8 Plain Text
Title : Forced
Language : Russian
Default : Yes
Forced : No

Text #2
ID : 5
Format : UTF-8
Codec ID : S_TEXT/UTF8
Codec ID/Info : UTF-8 Plain Text
Title : Full
Language : Russian
Default : No
Forced : No

Text #3
ID : 6
Format : UTF-8
Codec ID : S_TEXT/UTF8
Codec ID/Info : UTF-8 Plain Text
Title : SDH
Language : English
Default : No
Forced : No

Menu
00:00:00.000 : en:Amazon Original
00:00:06.000 : en:Previously On
00:03:12.000 : en:Death metal tributes
00:05:59.000 : en:Opening Credits
00:07:31.000 : en:Factory work
00:09:48.000 : en:Laura's desperate
00:11:38.000 : en:Running out of luck
00:14:59.000 : en:A disturbing encounter
00:18:32.000 : en:Control the narrative
00:20:25.000 : en:Twenty questions
00:24:45.000 : en:Having technical difficulties
00:29:20.000 : en:Road blockade
00:33:42.000 : en:Coming to collect
00:38:08.000 : en:Finding Whiskey Jack
00:41:49.000 : en:Shadow wants to make his own decisions
00:45:12.000 : en:Bus depot
00:46:37.000 : en:Arriving in Lakeside
00:48:35.000 : en:The cold North
00:50:53.000 : en:A ride home
00:52:50.000 : en:A broken entrance
00:54:35.000 : en:End Credits
 
[url=https://a.radikal.ru/a09/2101/9d/1ee85e91e325.png]Американские боги / American Gods [03x01-09 из 10] (2021) WEB-DL 720p от ExKinoRay | D | Нота







Размер: 17.66 GB


Имя:*